Subsonic 4.3 released

Announcements and discussion of new releases.

Moderator: moderators

Postby sindre_mehus » Mon Jan 10, 2011 1:03 pm

Oops sorry. Could you please see if you get the same behavior on a computer?
Subsonic developer
User avatar
sindre_mehus
 
Posts: 1955
Joined: Tue Nov 29, 2005 6:19 pm
Location: Oslo, Norway

Postby ihf » Mon Jan 10, 2011 1:17 pm

I don't see this on the computer but then again there is no dropdown for speed and this only happens when I set the speed greater than 1200kbps (on the Droid).
ihf
 
Posts: 13
Joined: Wed Jan 05, 2011 2:07 pm

Postby sindre_mehus » Mon Jan 10, 2011 1:21 pm

Strange. If possible, could you create a temporary test account for me on your server so I can look into it?
Subsonic developer
User avatar
sindre_mehus
 
Posts: 1955
Joined: Tue Nov 29, 2005 6:19 pm
Location: Oslo, Norway

Postby gotosleep » Mon Jan 10, 2011 7:40 pm

When I try to play a video, jwplayer is displaying an error message that says "Video not found or access denied: " followed by a url with a long string of letters and numbers.

Here is my log:

Code: Select all
[1/10/11 1:36:46 PM CST]   DEBUG   AudioScrobblerService   Successfully registered now playing for song 'CURB_ENTHUSIASM_S01E02' for user ndugu at Last.fm.
[1/10/11 1:37:11 PM CST]   DEBUG   AudioScrobblerService   Successfully registered submission for song 'CURB_ENTHUSIASM_S01E02' for user ndugu at Last.fm.
[1/10/11 1:37:13 PM CST]   INFO   PlaylistInputStream   admin listening to "Curb Your Enthusiasm S01/CURB_ENTHUSIASM_S01E02.mp4"
[1/10/11 1:37:13 PM CST]   DEBUG   TranscodeInputStream   Starting transcoder: [/Library/Application Support/Subsonic/transcode/ffmpeg] [-ss] [0] [-i] [/Volumes/VIDEO/Videos/Curb Your Enthusiam/Curb Your Enthusiasm S01/CURB_ENTHUSIASM_S01E02.mp4] [-async] [1] [-b] [1000k] [-s] [480x360] [-ar] [44100] [-ac] [2] [-v] [0] [-f] [flv] [-]
[1/10/11 1:37:13 PM CST]   DEBUG   InputStreamReaderThread   (/Library/Application Support/Subsonic/transcode/ffmpeg) FFmpeg version SVN-r25203-einsteinx2, Copyright (c) 2000-2010 the FFmpeg developers
[1/10/11 1:37:13 PM CST]   DEBUG   InputStreamReaderThread   (/Library/Application Support/Subsonic/transcode/ffmpeg) built on Sep 26 2010 02:08:29 with gcc 4.2.1 (Apple Inc. build 5664)
[1/10/11 1:37:13 PM CST]   DEBUG   InputStreamReaderThread   (/Library/Application Support/Subsonic/transcode/ffmpeg) configuration: --prefix=/Volumes/Ramdisk/ --as=yasm --extra-version=einsteinx2 --disable-shared --enable-static --disable-ffplay --disable-ffserver --enable-gpl --enable-pthreads --enable-postproc --enable-gray --enable-libfaac --enable-libmp3lame --enable-libtheora --enable-libvorbis --enable-libx264 --enable-libxvid --enable-libspeex --enable-bzlib --enable-zlib --enable-libopencore-amrnb --enable-libopencore-amrwb --enable-nonfree --enable-version3
[1/10/11 1:37:13 PM CST]   DEBUG   InputStreamReaderThread   (/Library/Application Support/Subsonic/transcode/ffmpeg) libavutil 50.28. 0 / 50.28. 0
[1/10/11 1:37:13 PM CST]   DEBUG   InputStreamReaderThread   (/Library/Application Support/Subsonic/transcode/ffmpeg) libavcore 0. 9. 0 / 0. 9. 0
[1/10/11 1:37:13 PM CST]   DEBUG   InputStreamReaderThread   (/Library/Application Support/Subsonic/transcode/ffmpeg) libavcodec 52.90. 0 / 52.90. 0
[1/10/11 1:37:13 PM CST]   DEBUG   InputStreamReaderThread   (/Library/Application Support/Subsonic/transcode/ffmpeg) libavformat 52.78. 5 / 52.78. 5
[1/10/11 1:37:13 PM CST]   DEBUG   InputStreamReaderThread   (/Library/Application Support/Subsonic/transcode/ffmpeg) libavdevice 52. 2. 2 / 52. 2. 2
[1/10/11 1:37:13 PM CST]   DEBUG   InputStreamReaderThread   (/Library/Application Support/Subsonic/transcode/ffmpeg) libavfilter 1.45. 0 / 1.45. 0
[1/10/11 1:37:13 PM CST]   DEBUG   InputStreamReaderThread   (/Library/Application Support/Subsonic/transcode/ffmpeg) libswscale 0.11. 0 / 0.11. 0
[1/10/11 1:37:13 PM CST]   DEBUG   InputStreamReaderThread   (/Library/Application Support/Subsonic/transcode/ffmpeg) libpostproc 51. 2. 0 / 51. 2. 0
[1/10/11 1:37:13 PM CST]   DEBUG   InputStreamReaderThread   (/Library/Application Support/Subsonic/transcode/ffmpeg) Input #0, mov,mp4,m4a,3gp,3g2,mj2, from '/Volumes/VIDEO/Videos/Curb Your Enthusiam/Curb Your Enthusiasm S01/CURB_ENTHUSIASM_S01E02.mp4':
[1/10/11 1:37:13 PM CST]   DEBUG   InputStreamReaderThread   (/Library/Application Support/Subsonic/transcode/ffmpeg) Metadata:
[1/10/11 1:37:13 PM CST]   DEBUG   InputStreamReaderThread   (/Library/Application Support/Subsonic/transcode/ffmpeg) major_brand : mp42
[1/10/11 1:37:13 PM CST]   DEBUG   InputStreamReaderThread   (/Library/Application Support/Subsonic/transcode/ffmpeg) minor_version : 0
[1/10/11 1:37:13 PM CST]   DEBUG   InputStreamReaderThread   (/Library/Application Support/Subsonic/transcode/ffmpeg) compatible_brands: mp42isom
[1/10/11 1:37:13 PM CST]   DEBUG   InputStreamReaderThread   (/Library/Application Support/Subsonic/transcode/ffmpeg) encoder : HandBrake 0.9.2 2008021900
[1/10/11 1:37:13 PM CST]   DEBUG   InputStreamReaderThread   (/Library/Application Support/Subsonic/transcode/ffmpeg) Duration: 00:28:22.20, start: 0.000000, bitrate: 1633 kb/s
[1/10/11 1:37:13 PM CST]   DEBUG   InputStreamReaderThread   (/Library/Application Support/Subsonic/transcode/ffmpeg) Chapter #0.0: start -0.066729, end 1702.200479
[1/10/11 1:37:13 PM CST]   DEBUG   InputStreamReaderThread   (/Library/Application Support/Subsonic/transcode/ffmpeg) Metadata:
[1/10/11 1:37:13 PM CST]   DEBUG   InputStreamReaderThread   (/Library/Application Support/Subsonic/transcode/ffmpeg) title : Chapter 1
[1/10/11 1:37:13 PM CST]   DEBUG   InputStreamReaderThread   (/Library/Application Support/Subsonic/transcode/ffmpeg) Stream #0.0(eng): Video: h264, yuv420p, 640x480, 1500 kb/s, 29.97 fps, 29.97 tbr, 48k tbn, 59.94 tbc
[1/10/11 1:37:13 PM CST]   DEBUG   InputStreamReaderThread   (/Library/Application Support/Subsonic/transcode/ffmpeg) Stream #0.1(eng): Audio: aac, 48000 Hz, stereo, s16, 127 kb/s
[1/10/11 1:37:13 PM CST]   DEBUG   InputStreamReaderThread   (/Library/Application Support/Subsonic/transcode/ffmpeg) Stream #0.2(eng): Subtitle: text / 0x74786574
[1/10/11 1:37:13 PM CST]   DEBUG   InputStreamReaderThread   (/Library/Application Support/Subsonic/transcode/ffmpeg) [buffer @ 0x11010b0] w:640 h:480 pixfmt:yuv420p
[1/10/11 1:37:13 PM CST]   DEBUG   InputStreamReaderThread   (/Library/Application Support/Subsonic/transcode/ffmpeg) [scale @ 0x1114eb0] w:640 h:480 fmt:yuv420p -> w:480 h:360 fmt:yuv420p flags:0xc0000004
[1/10/11 1:37:13 PM CST]   DEBUG   InputStreamReaderThread   (/Library/Application Support/Subsonic/transcode/ffmpeg) Output #0, flv, to 'pipe:':
[1/10/11 1:37:13 PM CST]   DEBUG   InputStreamReaderThread   (/Library/Application Support/Subsonic/transcode/ffmpeg) Metadata:
[1/10/11 1:37:13 PM CST]   DEBUG   InputStreamReaderThread   (/Library/Application Support/Subsonic/transcode/ffmpeg) encoder : Lavf52.78.5
[1/10/11 1:37:13 PM CST]   DEBUG   InputStreamReaderThread   (/Library/Application Support/Subsonic/transcode/ffmpeg) Chapter #0.0: start 0.000000, end 1702.200479
[1/10/11 1:37:13 PM CST]   DEBUG   InputStreamReaderThread   (/Library/Application Support/Subsonic/transcode/ffmpeg) Metadata:
[1/10/11 1:37:13 PM CST]   DEBUG   InputStreamReaderThread   (/Library/Application Support/Subsonic/transcode/ffmpeg) title : Chapter 1
[1/10/11 1:37:13 PM CST]   DEBUG   InputStreamReaderThread   (/Library/Application Support/Subsonic/transcode/ffmpeg) Stream #0.0(eng): Video: flv, yuv420p, 480x360, q=2-31, 1000 kb/s, 1k tbn, 29.97 tbc
[1/10/11 1:37:13 PM CST]   DEBUG   InputStreamReaderThread   (/Library/Application Support/Subsonic/transcode/ffmpeg) Stream #0.1(eng): Audio: libmp3lame, 44100 Hz, stereo, s16, 64 kb/s
[1/10/11 1:37:13 PM CST]   DEBUG   InputStreamReaderThread   (/Library/Application Support/Subsonic/transcode/ffmpeg) Stream mapping:
[1/10/11 1:37:13 PM CST]   DEBUG   InputStreamReaderThread   (/Library/Application Support/Subsonic/transcode/ffmpeg) Stream #0.0 -> #0.0
[1/10/11 1:37:13 PM CST]   DEBUG   InputStreamReaderThread   (/Library/Application Support/Subsonic/transcode/ffmpeg) Stream #0.1 -> #0.1
[1/10/11 1:37:13 PM CST]   DEBUG   InputStreamReaderThread   (/Library/Application Support/Subsonic/transcode/ffmpeg) Press [q] to stop encoding
[1/10/11 1:37:14 PM CST]   DEBUG   AudioScrobblerService   Successfully registered now playing for song 'CURB_ENTHUSIASM_S01E02' for user ndugu at Last.fm
gotosleep
 
Posts: 7
Joined: Fri Oct 22, 2010 3:37 pm

Postby stozher » Mon Jan 10, 2011 8:25 pm

Sindre,

"AudioScrobblerService Successfully registered now playing for song 'CURB_ENTHUSIASM_S01E02' for user ndugu at Last.fm"

'CURB_ENTHUSIASM_S01E02' is a movie...
http://music.stozher.com:8080/login.view?user=guest&password=
User avatar
stozher
 
Posts: 313
Joined: Tue Nov 16, 2010 10:56 am
Location: Sofia, Bulgaria

Postby sindre_mehus » Mon Jan 10, 2011 10:13 pm

stozher wrote:Sindre,

"AudioScrobblerService Successfully registered now playing for song 'CURB_ENTHUSIASM_S01E02' for user ndugu at Last.fm"

'CURB_ENTHUSIASM_S01E02' is a movie...


Good point :-) I'll fix that.

Thanks
Subsonic developer
User avatar
sindre_mehus
 
Posts: 1955
Joined: Tue Nov 29, 2005 6:19 pm
Location: Oslo, Norway

Postby skycoca » Tue Jan 11, 2011 12:13 am

Hi,

A problem occured, when I was starting watch of a video:

[11/01/11 01:06:20 CET] INFO PlaylistInputStream admin listening to "Pink Floyd/Pink Floyd - The Wall.avi"
[11/01/11 01:06:20 CET] DEBUG TranscodeInputStream Starting transcoder: [/var/subsonic/transcode/ffmpeg] [-ss] [0] [-i] [/...../Pink Floyd/Pink Floyd - The Wall.avi] [-async] [1] [-b] [1000k] [-s] [0x320] [-ar] [44100] [-ac] [2] [-v] [0] [-f] [flv] [-]
[11/01/11 01:06:20 CET] DEBUG InputStreamReaderThread (/var/subsonic/transcode/ffmpeg) FFmpeg version r11872+debian_0.svn20080206-18+lenny1, Copyright (c) 2000-2008 Fabrice Bellard, et al.
[11/01/11 01:06:20 CET] DEBUG InputStreamReaderThread (/var/subsonic/transcode/ffmpeg) configuration: --enable-gpl --enable-libfaad --enable-pp --enable-swscaler --enable-x11grab --prefix=/usr --enable-libgsm --enable-libtheora --enable-libvorbis --enable-pthreads --disable-strip --enable-libdc1394 --enable-shared --disable-static
[11/01/11 01:06:20 CET] DEBUG InputStreamReaderThread (/var/subsonic/transcode/ffmpeg) libavutil version: 49.6.0
[11/01/11 01:06:20 CET] DEBUG InputStreamReaderThread (/var/subsonic/transcode/ffmpeg) libavcodec version: 51.50.0
[11/01/11 01:06:20 CET] DEBUG InputStreamReaderThread (/var/subsonic/transcode/ffmpeg) libavformat version: 52.7.0
[11/01/11 01:06:20 CET] DEBUG InputStreamReaderThread (/var/subsonic/transcode/ffmpeg) libavdevice version: 52.0.0
[11/01/11 01:06:20 CET] DEBUG InputStreamReaderThread (/var/subsonic/transcode/ffmpeg) built on Jan 25 2010 18:27:39, gcc: 4.3.2
[11/01/11 01:06:20 CET] DEBUG InputStreamReaderThread (/var/subsonic/transcode/ffmpeg) [NULL @ 0x7f7058fe5d00]looks like this file was encoded with (divx4/(old)xvid/opendivx) -> forcing low_delay flag
[11/01/11 01:06:20 CET] DEBUG InputStreamReaderThread (/var/subsonic/transcode/ffmpeg)
[11/01/11 01:06:20 CET] DEBUG InputStreamReaderThread (/var/subsonic/transcode/ffmpeg) Seems stream 0 codec frame rate differs from container frame rate: 30000.00 (30000/1) -> 25.00 (25/1)
[11/01/11 01:06:20 CET] DEBUG InputStreamReaderThread (/var/subsonic/transcode/ffmpeg) Input #0, avi, from '/...../Pink Floyd/Pink Floyd - The Wall.avi':
[11/01/11 01:06:20 CET] DEBUG InputStreamReaderThread (/var/subsonic/transcode/ffmpeg) Duration: 01:35:09.8, start: 0.000000, bitrate: 1017 kb/s
[11/01/11 01:06:20 CET] DEBUG InputStreamReaderThread (/var/subsonic/transcode/ffmpeg) Stream #0.0: Video: mpeg4, yuv420p, 576x320 [PAR 0:1 DAR 0:1], 25.00 tb(r)
[11/01/11 01:06:20 CET] DEBUG InputStreamReaderThread (/var/subsonic/transcode/ffmpeg) Stream #0.1: Audio: mp3, 48000 Hz, stereo, 32 kb/s
[11/01/11 01:06:20 CET] DEBUG InputStreamReaderThread (/var/subsonic/transcode/ffmpeg) Incorrect frame size

on debian lenny system
skycoca
 
Posts: 1
Joined: Tue Jan 11, 2011 12:07 am

Postby stozher » Tue Jan 11, 2011 1:35 am

skycoca,

"Incorrect frame size" - "[-s] [0x320]"

This is a size of encoded movie - 0px x 320px :shock:

ffmpeg -v 0 -ss %o -async 1 -i %s -f flv -b %bk -s %wx%h -acodec copy -

also correct this 0px size of with...
http://music.stozher.com:8080/login.view?user=guest&password=
User avatar
stozher
 
Posts: 313
Joined: Tue Nov 16, 2010 10:56 am
Location: Sofia, Bulgaria

Postby sindre_mehus » Tue Jan 11, 2011 5:48 am

stozher wrote:skycoca,

"Incorrect frame size" - "[-s] [0x320]"

This is a size of encoded movie - 0px x 320px :shock:

ffmpeg -v 0 -ss %o -async 1 -i %s -f flv -b %bk -s %wx%h -acodec copy -

also correct this 0px size of with...


Will do. It's caused by ffmpeg reporting an invalid pixel aspect rate (PAR) of 0:1

Code: Select all
Stream #0.0: Video: mpeg4, yuv420p, 576x320 [PAR 0:1 DAR 0:1], 25.00 tb(r)


Thanks you
Subsonic developer
User avatar
sindre_mehus
 
Posts: 1955
Joined: Tue Nov 29, 2005 6:19 pm
Location: Oslo, Norway

Postby burjast » Tue Jan 11, 2011 7:26 am

gotosleep wrote:When I try to play a video, jwplayer is displaying an error message that says "Video not found or access denied: " followed by a url with a long string of letters and numbers.

Here is my log:

Code: Select all
[1/10/11 1:36:46 PM CST]   DEBUG   AudioScrobblerService   Successfully registered now playing for song 'CURB_ENTHUSIASM_S01E02' for user ndugu at Last.fm.
[1/10/11 1:37:11 PM CST]   DEBUG   AudioScrobblerService   Successfully registered submission for song 'CURB_ENTHUSIASM_S01E02' for user ndugu at Last.fm.
[1/10/11 1:37:13 PM CST]   INFO   PlaylistInputStream   admin listening to "Curb Your Enthusiasm S01/CURB_ENTHUSIASM_S01E02.mp4"
[1/10/11 1:37:13 PM CST]   DEBUG   TranscodeInputStream   Starting transcoder: [/Library/Application Support/Subsonic/transcode/ffmpeg] [-ss] [0] [-i] [/Volumes/VIDEO/Videos/Curb Your Enthusiam/Curb Your Enthusiasm S01/CURB_ENTHUSIASM_S01E02.mp4] [-async] [1] [-b] [1000k] [-s] [480x360] [-ar] [44100] [-ac] [2] [-v] [0] [-f] [flv] [-]
[1/10/11 1:37:13 PM CST]   DEBUG   InputStreamReaderThread   (/Library/Application Support/Subsonic/transcode/ffmpeg) FFmpeg version SVN-r25203-einsteinx2, Copyright (c) 2000-2010 the FFmpeg developers
[1/10/11 1:37:13 PM CST]   DEBUG   InputStreamReaderThread   (/Library/Application Support/Subsonic/transcode/ffmpeg) built on Sep 26 2010 02:08:29 with gcc 4.2.1 (Apple Inc. build 5664)
[1/10/11 1:37:13 PM CST]   DEBUG   InputStreamReaderThread   (/Library/Application Support/Subsonic/transcode/ffmpeg) configuration: --prefix=/Volumes/Ramdisk/ --as=yasm --extra-version=einsteinx2 --disable-shared --enable-static --disable-ffplay --disable-ffserver --enable-gpl --enable-pthreads --enable-postproc --enable-gray --enable-libfaac --enable-libmp3lame --enable-libtheora --enable-libvorbis --enable-libx264 --enable-libxvid --enable-libspeex --enable-bzlib --enable-zlib --enable-libopencore-amrnb --enable-libopencore-amrwb --enable-nonfree --enable-version3
[1/10/11 1:37:13 PM CST]   DEBUG   InputStreamReaderThread   (/Library/Application Support/Subsonic/transcode/ffmpeg) libavutil 50.28. 0 / 50.28. 0
[1/10/11 1:37:13 PM CST]   DEBUG   InputStreamReaderThread   (/Library/Application Support/Subsonic/transcode/ffmpeg) libavcore 0. 9. 0 / 0. 9. 0
[1/10/11 1:37:13 PM CST]   DEBUG   InputStreamReaderThread   (/Library/Application Support/Subsonic/transcode/ffmpeg) libavcodec 52.90. 0 / 52.90. 0
[1/10/11 1:37:13 PM CST]   DEBUG   InputStreamReaderThread   (/Library/Application Support/Subsonic/transcode/ffmpeg) libavformat 52.78. 5 / 52.78. 5
[1/10/11 1:37:13 PM CST]   DEBUG   InputStreamReaderThread   (/Library/Application Support/Subsonic/transcode/ffmpeg) libavdevice 52. 2. 2 / 52. 2. 2
[1/10/11 1:37:13 PM CST]   DEBUG   InputStreamReaderThread   (/Library/Application Support/Subsonic/transcode/ffmpeg) libavfilter 1.45. 0 / 1.45. 0
[1/10/11 1:37:13 PM CST]   DEBUG   InputStreamReaderThread   (/Library/Application Support/Subsonic/transcode/ffmpeg) libswscale 0.11. 0 / 0.11. 0
[1/10/11 1:37:13 PM CST]   DEBUG   InputStreamReaderThread   (/Library/Application Support/Subsonic/transcode/ffmpeg) libpostproc 51. 2. 0 / 51. 2. 0
[1/10/11 1:37:13 PM CST]   DEBUG   InputStreamReaderThread   (/Library/Application Support/Subsonic/transcode/ffmpeg) Input #0, mov,mp4,m4a,3gp,3g2,mj2, from '/Volumes/VIDEO/Videos/Curb Your Enthusiam/Curb Your Enthusiasm S01/CURB_ENTHUSIASM_S01E02.mp4':
[1/10/11 1:37:13 PM CST]   DEBUG   InputStreamReaderThread   (/Library/Application Support/Subsonic/transcode/ffmpeg) Metadata:
[1/10/11 1:37:13 PM CST]   DEBUG   InputStreamReaderThread   (/Library/Application Support/Subsonic/transcode/ffmpeg) major_brand : mp42
[1/10/11 1:37:13 PM CST]   DEBUG   InputStreamReaderThread   (/Library/Application Support/Subsonic/transcode/ffmpeg) minor_version : 0
[1/10/11 1:37:13 PM CST]   DEBUG   InputStreamReaderThread   (/Library/Application Support/Subsonic/transcode/ffmpeg) compatible_brands: mp42isom
[1/10/11 1:37:13 PM CST]   DEBUG   InputStreamReaderThread   (/Library/Application Support/Subsonic/transcode/ffmpeg) encoder : HandBrake 0.9.2 2008021900
[1/10/11 1:37:13 PM CST]   DEBUG   InputStreamReaderThread   (/Library/Application Support/Subsonic/transcode/ffmpeg) Duration: 00:28:22.20, start: 0.000000, bitrate: 1633 kb/s
[1/10/11 1:37:13 PM CST]   DEBUG   InputStreamReaderThread   (/Library/Application Support/Subsonic/transcode/ffmpeg) Chapter #0.0: start -0.066729, end 1702.200479
[1/10/11 1:37:13 PM CST]   DEBUG   InputStreamReaderThread   (/Library/Application Support/Subsonic/transcode/ffmpeg) Metadata:
[1/10/11 1:37:13 PM CST]   DEBUG   InputStreamReaderThread   (/Library/Application Support/Subsonic/transcode/ffmpeg) title : Chapter 1
[1/10/11 1:37:13 PM CST]   DEBUG   InputStreamReaderThread   (/Library/Application Support/Subsonic/transcode/ffmpeg) Stream #0.0(eng): Video: h264, yuv420p, 640x480, 1500 kb/s, 29.97 fps, 29.97 tbr, 48k tbn, 59.94 tbc
[1/10/11 1:37:13 PM CST]   DEBUG   InputStreamReaderThread   (/Library/Application Support/Subsonic/transcode/ffmpeg) Stream #0.1(eng): Audio: aac, 48000 Hz, stereo, s16, 127 kb/s
[1/10/11 1:37:13 PM CST]   DEBUG   InputStreamReaderThread   (/Library/Application Support/Subsonic/transcode/ffmpeg) Stream #0.2(eng): Subtitle: text / 0x74786574
[1/10/11 1:37:13 PM CST]   DEBUG   InputStreamReaderThread   (/Library/Application Support/Subsonic/transcode/ffmpeg) [buffer @ 0x11010b0] w:640 h:480 pixfmt:yuv420p
[1/10/11 1:37:13 PM CST]   DEBUG   InputStreamReaderThread   (/Library/Application Support/Subsonic/transcode/ffmpeg) [scale @ 0x1114eb0] w:640 h:480 fmt:yuv420p -> w:480 h:360 fmt:yuv420p flags:0xc0000004
[1/10/11 1:37:13 PM CST]   DEBUG   InputStreamReaderThread   (/Library/Application Support/Subsonic/transcode/ffmpeg) Output #0, flv, to 'pipe:':
[1/10/11 1:37:13 PM CST]   DEBUG   InputStreamReaderThread   (/Library/Application Support/Subsonic/transcode/ffmpeg) Metadata:
[1/10/11 1:37:13 PM CST]   DEBUG   InputStreamReaderThread   (/Library/Application Support/Subsonic/transcode/ffmpeg) encoder : Lavf52.78.5
[1/10/11 1:37:13 PM CST]   DEBUG   InputStreamReaderThread   (/Library/Application Support/Subsonic/transcode/ffmpeg) Chapter #0.0: start 0.000000, end 1702.200479
[1/10/11 1:37:13 PM CST]   DEBUG   InputStreamReaderThread   (/Library/Application Support/Subsonic/transcode/ffmpeg) Metadata:
[1/10/11 1:37:13 PM CST]   DEBUG   InputStreamReaderThread   (/Library/Application Support/Subsonic/transcode/ffmpeg) title : Chapter 1
[1/10/11 1:37:13 PM CST]   DEBUG   InputStreamReaderThread   (/Library/Application Support/Subsonic/transcode/ffmpeg) Stream #0.0(eng): Video: flv, yuv420p, 480x360, q=2-31, 1000 kb/s, 1k tbn, 29.97 tbc
[1/10/11 1:37:13 PM CST]   DEBUG   InputStreamReaderThread   (/Library/Application Support/Subsonic/transcode/ffmpeg) Stream #0.1(eng): Audio: libmp3lame, 44100 Hz, stereo, s16, 64 kb/s
[1/10/11 1:37:13 PM CST]   DEBUG   InputStreamReaderThread   (/Library/Application Support/Subsonic/transcode/ffmpeg) Stream mapping:
[1/10/11 1:37:13 PM CST]   DEBUG   InputStreamReaderThread   (/Library/Application Support/Subsonic/transcode/ffmpeg) Stream #0.0 -> #0.0
[1/10/11 1:37:13 PM CST]   DEBUG   InputStreamReaderThread   (/Library/Application Support/Subsonic/transcode/ffmpeg) Stream #0.1 -> #0.1
[1/10/11 1:37:13 PM CST]   DEBUG   InputStreamReaderThread   (/Library/Application Support/Subsonic/transcode/ffmpeg) Press [q] to stop encoding
[1/10/11 1:37:14 PM CST]   DEBUG   AudioScrobblerService   Successfully registered now playing for song 'CURB_ENTHUSIASM_S01E02' for user ndugu at Last.fm


You don't have ffmpeg or symlink is not correct in transcode folder :)

I have another question, ffmpeg is using alot of CPU on my box, always 99-100%. Can anyone give explanation for this? It it the same if I play 300Mb tv serie or 4,5Gb HD movie. I know It should not take 100%, I had transcoding on older subsonic, and ffmpeg transcoded at alot less CPU. My CPU is P4 3.0Ghz - linux.

Thanks for any suggestions.
I just know.
burjast
 
Posts: 71
Joined: Mon Jul 20, 2009 9:00 am
Location: Slovenia

Postby gotosleep » Tue Jan 11, 2011 3:47 pm

@burjast, I do have ffmpeg and it is located exactly where Subsonic is looking for it according to the log. Proof:

Code: Select all
mac-mini:transcode gotosleep$ pwd
/Library/Application Support/Subsonic/transcode
mac-mini:transcode gotosleep$ ls -l
total 21272
-rwxr-xr-x  1 root  admin  10505512 Sep 25 19:08 ffmpeg
-rwxr-xr-x  1 root  admin    384316 Sep 25 17:28 lame


Also, in the log I posted previously, you can see the output from Subsonic running ffmpeg, so obviously that isn't the issue. Do I need a symlink somewhere else? Sindre, any ideas?
gotosleep
 
Posts: 7
Joined: Fri Oct 22, 2010 3:37 pm

Postby burjast » Tue Jan 11, 2011 4:00 pm

gotosleep wrote:@burjast, I do have ffmpeg and it is located exactly where Subsonic is looking for it according to the log. Proof:

Code: Select all
mac-mini:transcode gotosleep$ pwd
/Library/Application Support/Subsonic/transcode
mac-mini:transcode gotosleep$ ls -l
total 21272
-rwxr-xr-x  1 root  admin  10505512 Sep 25 19:08 ffmpeg
-rwxr-xr-x  1 root  admin    384316 Sep 25 17:28 lame


Also, in the log I posed above, you can see the output from Subsonic running ffmpeg, so obviously that isn't the issue. Do I need a symlink somewhere else? Sindre, any ideas?


Sorry, I didn't exactly read debug log :) But strange, I don't know at this time what would it be..
I just know.
burjast
 
Posts: 71
Joined: Mon Jul 20, 2009 9:00 am
Location: Slovenia

Postby sindre_mehus » Tue Jan 11, 2011 5:03 pm

@gotosleep: everything looks correct so I'm not sure what it can be. Does it happen with all videos, or just this one?
Subsonic developer
User avatar
sindre_mehus
 
Posts: 1955
Joined: Tue Nov 29, 2005 6:19 pm
Location: Oslo, Norway

Postby mgrant » Thu Jan 13, 2011 7:04 pm

gotosleep wrote:@burjast, I do have ffmpeg and it is located exactly where Subsonic is looking for it according to the log. Proof:

Code: Select all
mac-mini:transcode gotosleep$ pwd
/Library/Application Support/Subsonic/transcode
mac-mini:transcode gotosleep$ ls -l
total 21272
-rwxr-xr-x  1 root  admin  10505512 Sep 25 19:08 ffmpeg
-rwxr-xr-x  1 root  admin    384316 Sep 25 17:28 lame


Also, in the log I posted previously, you can see the output from Subsonic running ffmpeg, so obviously that isn't the issue. Do I need a symlink somewhere else? Sindre, any ideas?


I sometimes see the same thing with videos. I've always assumed it's due to a buffer underrun. I can usually just press play again and it will work. Adding a 30 second buffer to the player seems to have solved it for me.

To add a 30 second buffer you can modify the videoPlayer.jsp and add bufferlength:"30" to the flashvars.

-mg
mgrant
 
Posts: 76
Joined: Mon Mar 03, 2008 1:15 am

Postby sfry » Thu Jan 13, 2011 11:17 pm

Am I the only one who has had problems with the latest build of 4.3? (2078) Edit: Solved

Expected Behavior:
jw-player displays as part of playlist.view on web interface of subsonic/

Actual Beahviour:
We are left with a white box in place of where jw-player should be.

Analysis:
It has been working fine, however now it would seem that the source of ./playlist.view is refering to a different version of jw-player.
playlist.view line 89
swfobject.embedSWF("/subsonic/flash/jw-player-5.0.swf", "placeholder", "340", "24", "9.0.0", false, flashvars, params, attributes);


however I have ./flash/jw-player-5.4.swf, not version 5.0

Admittedly I have minimal knowledge of web apps, Perhaps someone better equipped could shed some light on the matter?

For the record,
OS: Ubuntu 10.04 Server
Host: Tomcat6 6.0.24-2ubuntu1
Subsonic 4.3 (2078) (Un-registered)

I have removed /var/subsonic and reinstalled the war file to no avail, the only change that I can think of is trying the trial on the android, perhaps this could have brought about some changes in the rendering of the playlist.view when the trial period expired?

Thanks in advance for any feedback.
Steve

Edit: It would also seem like I am having difficulty in adding users to subsonic, yet am able to change the password of admin successfully. No error message appears after clicking 'Save' but the new users do not appear in the drop-box and cannot be used to login.

Nothing in subsonic.log however ./db/subsonic.log is spitting out
/*C1*/SET SCHEMA PUBLIC
CONNECT USER SA
DISCONNECT
repeatedly.
Last edited by sfry on Fri Jan 14, 2011 12:53 am, edited 1 time in total.
sfry
 
Posts: 4
Joined: Sat Jan 08, 2011 8:18 pm

PreviousNext

Return to Announcements

Who is online

Users browsing this forum: No registered users and 2 guests